Bumblebee 2018 HDRip 720P x264 AAC

Bumblebee 2018 HDRip 720P x264 AAC

https://www.imdb.com/title/tt4701182/


General
Complete name : Bumblebee 2018 HDRip 720P x264 AAC.mp4
Format : MPEG-4
Format profile : Base Media
Codec ID : isom (isom/iso2/avc1/mp41)
File size : 608 MiB
Duration : 2 h 16 min
Video
ID : 1
Format : AVC
Format/Info : Advanced Video Codec
Format profile : Main@L3
Format settings : CABAC / 2 Ref Frames
Format settings, CABAC : Yes
Format settings, RefFrames : 2 frames
Codec ID : avc1
Codec ID/Info : Advanced Video Coding
Duration : 2 h 16 min
Duration_FirstFrame : -67 ms
Bit rate : 458 kb/s
Width : 720 pixels
Height : 480 pixels
Display aspect ratio : 3:2
Frame rate mode : Variable
Frame rate : 29.970 FPS
Minimum frame rate : 9.990 FPS
Maximum frame rate : 29.970 FPS
Standard : NTSC
Color space : YUV
Chroma subsampling : 4:2:0
Bit depth : 8 bits
Scan type : Progressive
Bits/(Pixel*Frame) : 0.044
Stream size : 442 MiB (73%)
Writing library : x264
Audio
ID : 2
Format : AAC
Format/Info : Advanced Audio Codec
Format profile : LC
Codec ID : mp4a-40-2
Duration : 2 h 16 min
Bit rate mode : Variable
Bit rate : 165 kb/s
Channel(s) : 2 channels
Channel positions : Front: L R
Sampling rate : 48.0 kHz
Frame rate : 46.875 FPS (1024 SPF)
Compression mode : Lossy
Stream size : 161 MiB (26%)







…::: Torrent Download Link :::…

…::: Download Link :::…

Openload Link

Click Link

Indishare Link

BDupload Link

Bumblebee 2018 HDRip 720P x264 AAC .

(Visited 7 times, 1 visits today)

Add Comment