Simha 2 (Uu Kodathara Ulikki Padathara) 2018 Hindi Dubbed Movie WEBRip x264







Simha 2 (Uu Kodathara Ulikki Padathara) 2018 Hindi Dubbed Movie WEBRip x264




















Simha 2 (Uu Kodathara Ulikki Padathara) 2018 Hindi Dubbed Movie WEBRip x264

https://www.imdb.com/title/tt2401225/



General
Complete name : Simha 2 (Uu Kodathara Ulikki Padathara) 2018 Hindi Dubbed Movie WEBRip x264.mp4
Format : MPEG-4
Format profile : Base Media
Codec ID : isom (isom/iso2/avc1/mp41)
File size : 1.38 GiB
Duration : 2 h 35 min
Overall bit rate mode : Variable
Overall bit rate : 1 271 kb/s
Video
ID : 1
Format : AVC
Format/Info : Advanced Video Codec
Format profile : [email protected]
Format settings : CABAC / 2 Ref Frames
Format settings, CABAC : Yes
Format settings, RefFrames : 2 frames
Codec ID : avc1
Codec ID/Info : Advanced Video Coding
Duration : 2 h 35 min
Duration_FirstFrame : -67 ms
Bit rate : 1 103 kb/s
Width : 1 280 pixels
Height : 720 pixels
Display aspect ratio : 16:9
Frame rate mode : Variable
Frame rate : 29.970 FPS
Minimum frame rate : 9.990 FPS
Maximum frame rate : 29.970 FPS
Color space : YUV
Chroma subsampling : 4:2:0
Bit depth : 8 bits
Scan type : Progressive
Bits/(Pixel*Frame) : 0.040
Stream size : 1.20 GiB (87%)
Writing library : x264 core 112 r1834 a51816a
Audio
ID : 2
Format : AAC
Format/Info : Advanced Audio Codec
Format profile : LC
Codec ID : mp4a-40-2
Duration : 2 h 35 min
Bit rate mode : Variable
Bit rate : 165 kb/s
Channel(s) : 2 channels
Channel positions : Front: L R
Sampling rate : 48.0 kHz
Frame rate : 46.875 FPS (1024 SPF)
Compression mode : Lossy
Stream size : 184 MiB (13%)







…::: Torrent Download Link :::…

…::: Download Link :::…

Openload Link

Click Link

Indishare Link

BDupload Link


Post Views:
344



Comments

(Visited 5 times, 1 visits today)

Add Comment